<?xml version="1.0" standalone="no"?>
<!DOCTYPE svg PUBLIC "-//W3C//DTD SVG 1.1//EN" "http://www.w3.org/Graphics/SVG/1.1/DTD/svg11.dtd">
<svg xmlns="http://www.w3.org/2000/svg">
<metadata>RhodeCode GmbH</metadata>
<defs>
<font id="rcicons" horiz-adv-x="1000" >
<font-face font-family="rcicons" font-weight="400" font-stretch="normal" units-per-em="1000" ascent="850" descent="-150" />
<missing-glyph horiz-adv-x="1000" />
<glyph glyph-name="rc-icon-svn-transparent" unicode="&#xe800;" d="m938 855h-871c-36 0-67-31-67-67v-871c0-36 31-67 67-67h871c36 0 67 31 67 67v871c0 36-31 67-67 67z m-5-936h-864v864h864v-864z m-762 312c8-2 15-5 22-7 7-3 14-3 21-3 15 0 29 3 41 8 12 4 21 12 31 21 9 10 14 19 19 31 5 12 7 24 7 36 0 9-2 16-5 24-2 7-7 11-9 16-5 5-10 10-15 12-4 2-12 5-16 7-5 3-12 5-17 7-5 3-9 5-14 8-5 2-7 4-10 9-2 2-5 7-5 12 0 5 0 9 3 12 2 5 2 7 7 9 2 3 7 5 10 8 4 2 9 2 14 2 5 0 12 0 14-2 5-3 7-5 12-5 2-3 7-5 10-5 2-2 4-2 7-2 2 0 4 0 7 2 2 2 5 2 7 7l17 24c-3 5-8 9-12 12-5 5-10 7-17 9-7 3-12 5-19 8-7 2-14 2-21 2-15 0-27-2-39-7s-21-12-28-19c-7-7-14-17-19-29-5-9-7-21-7-33 0-10 2-19 4-26 3-8 8-12 10-17 5-5 10-10 14-12 5-2 12-5 17-7 5-2 12-5 17-5 4-2 9-5 14-7s7-5 9-10c3-2 5-7 5-11 0-12-2-19-9-27-5-4-15-9-24-9-7 0-14 0-19 2-5 3-10 5-14 7-5 3-8 5-10 8-2 2-7 2-10 2-2 0-4 0-7-2-2-3-4-3-7-5l-21-31c5-5 9-10 14-14 7-5 14-8 21-10z m308-7l126 257h-48c-2 0-5 0-7 0-2 0-5-2-5-2-2 0-2-3-4-5-3-3-3-3-3-5l-59-143c-3-5-8-12-10-19-2-7-5-14-7-21 0 7-2 14-2 21-3 7-3 14-5 19l-26 143c0 5-3 7-5 10-3 2-7 2-12 2h-45l64-257h48z m207 150c0 2 0 5 0 9 0 3 0 8 0 10l90-160c3-2 5-4 7-7 3-2 8-2 12-2h31l31 257h-50l-16-145c0-3 0-7-3-10 0-5 0-7 0-12l-90 160c0 2-3 2-3 5s-4 0-4 0c-3 0-3 0-5 2-3 0-5 0-7 0h-31l-31-257h50l19 150z" horiz-adv-x="1000" />
<glyph glyph-name="rc-icon-hg-transparent" unicode="&#xe801;" d="m933 850h-871c-36 0-67-31-67-67v-871c0-36 31-67 67-67h871c36 0 67 31 67 67v871c0 36-31 67-67 67z m-2-933h-864v864h864v-864z m-605 421h93l-14-109h57l31 257h-57l-15-110h-92l14 110h-57l-31-257h57l14 109z m238-88c10-9 22-19 34-24 14-5 28-9 43-9 9 0 19 0 26 2 9 0 16 2 24 5 7 2 14 5 21 9 7 3 14 8 21 12l15 107h-86l-5-31c0-2 0-4 3-7 2-2 4-2 7-2h21l-5-43c-4-2-9-5-16-5-5-2-12-2-19-2-10 0-17 2-24 5-7 2-14 7-19 14-5 7-10 14-12 24 2 7 2 16 2 28 0 15 3 29 5 41 5 12 10 21 17 31s14 14 24 19c9 5 19 7 30 7 5 0 10 0 15 0 5 0 7-2 12-2 4-3 7-3 12-5 4-3 7-5 11-7 5-3 10-5 12-3 5 0 8 3 12 7l19 24c-4 5-9 10-14 15-5 4-12 9-19 11-7 3-14 8-24 8-9 2-19 2-31 2-14 0-26-2-38-5-12-2-24-7-33-14-10-7-19-14-29-24-9-9-16-19-21-28-7-12-10-24-14-36-3-12-5-26-5-41 0-16 2-31 7-45 5-17 12-28 21-38z" horiz-adv-x="1000" />
<glyph glyph-name="rc-icon-git-transparent" unicode="&#xe802;" d="m933 850h-885c-38 0-69-29-69-67v-866c0-36 31-67 66-67h886c38 0 67 31 67 67v866c2 38-29 67-65 67z m-4-931h-879v862h879v-862z m-269 307h57l26 212h67l7 45h-193l-5-45h67l-26-212z m-103 257h-59l-31-257h57l33 257z m-336-219c10-9 22-19 34-23 14-5 28-10 45-10 10 0 19 0 29 2 9 0 16 3 23 5 8 3 15 5 22 10 7 2 14 7 21 12l15 107h-89l-4-31c0-3 0-5 2-7s5-3 7-3h22l-5-43c-5-2-12-4-17-4-5-3-12-3-19-3-9 0-16 3-24 5-7 2-14 7-19 14-4 7-9 15-12 24-2 10-4 19-4 31 0 14 2 29 4 41 5 11 10 21 17 30 7 10 14 15 24 20 9 4 19 7 31 7 5 0 9 0 14 0 5 0 7-3 12-3 5-2 7-2 12-4 5-3 7-5 12-8 5-2 9-4 14-2 5 0 7 2 12 7l19 24c-5 5-9 9-14 14-5 5-12 7-19 12-7 3-15 7-24 7s-17-2-29-2c-14 0-26-2-38-5-12-2-24-7-33-14-10-7-19-14-29-22-9-9-16-19-21-28-7-12-12-24-14-36-3-12-5-26-5-40 0-17 2-31 7-46 5-16 12-28 21-38z" horiz-adv-x="1000" />
<glyph glyph-name="svn" unicode="&#xe803;" d="m934 850h-868c-36 0-66-30-66-66v-868c0-36 30-66 66-66h868c36 0 66 30 66 66v868c0 36-30 66-66 66z m-779-445c4-4 8-7 13-10 5-2 11-6 18-9 7-2 14-5 22-7 7-3 13-6 21-10 7-4 14-9 19-14 5-6 10-12 13-20 4-7 5-17 5-29 0-16-2-31-8-45-5-13-14-26-24-37-10-10-23-19-38-25-15-6-31-9-50-9-8 0-18 1-27 3-9 2-19 5-26 8-10 2-18 7-25 12-8 5-14 11-19 17l26 33c3 2 5 5 8 6 2 1 6 2 8 2 4 0 8-1 13-3 4-3 9-7 12-10 5-4 10-7 17-10 6-3 13-4 22-4 14 0 24 4 31 11 8 8 12 18 12 33 0 6-2 12-5 16-4 4-8 7-13 11-5 3-11 5-19 8-7 2-13 5-21 7-7 3-14 6-21 9-8 4-13 9-19 14-5 6-10 12-12 21-4 9-5 19-5 31 0 14 2 28 7 41 5 13 13 25 23 35 10 10 22 18 36 24 14 6 30 9 47 9 9 0 18-1 27-3 8-2 16-5 23-7 8-4 14-8 20-13 7-5 12-10 15-15l-18-31c-3-4-5-6-8-7-2-2-5-3-9-3-3 0-6 1-10 4s-7 5-11 7c-4 3-9 5-14 8-5 2-11 4-18 4-7 0-13-2-18-3-5-2-9-5-12-7-4-4-7-8-8-12-4-6-5-11-5-17 0-5 3-10 5-14z m318-215h-65l-79 319h57c7 0 12-1 15-5 4-3 7-6 7-11l33-177c3-7 4-15 5-23 2-9 3-18 4-27 3 9 6 18 10 27 4 8 8 16 11 23l75 177c2 2 3 3 4 6 1 2 4 4 6 5 3 1 5 2 8 4 2 1 5 1 9 1h57l-157-319z m430 0h-38c-5 0-10 1-14 3-3 1-6 5-10 8l-111 197c0-4 0-8-1-12 0-3-1-7-1-11l-23-186h-62l40 319h37c3 0 6 0 8 0 2 0 3-2 5-2 1-1 2-2 3-3 2-2 3-4 4-7l111-197c0 5 2 10 2 15 0 5 1 9 1 14l21 180h63l-35-318z" horiz-adv-x="1000" />
<glyph glyph-name="hg" unicode="&#xe804;" d="m935 851h-867c-37 0-67-30-67-66v-868c0-36 30-66 67-66h867c36 0 66 30 66 66v868c0 36-30 66-66 66z m-491-660h-71l16 135h-115l-16-135h-72l39 319h71l-16-135h115l16 135h72l-39-319z m180 104c4-11 9-20 15-29 6-7 14-13 22-17 9-4 19-6 29-6 9 0 16 1 24 2 7 1 14 4 20 6l6 53h-27c-4 0-8 1-10 4-3 2-3 5-3 8l5 39h106l-16-134c-9-6-16-11-25-15-9-3-17-7-27-10-10-2-20-5-30-6-10-1-22-2-34-2-20 0-38 3-54 11-16 7-30 17-41 30-11 12-20 27-28 45-6 17-10 36-10 56 0 18 3 35 7 50 3 16 10 31 17 44 8 14 16 26 26 36 10 11 23 20 35 28 13 7 27 13 42 17 15 4 30 6 46 6 14 0 26-1 36-3 11-3 21-7 30-10 9-4 16-9 24-15 6-5 12-12 19-18l-24-29c-4-5-9-8-14-8-5-2-11 0-16 3-5 4-10 7-15 9-5 3-9 5-14 6-5 2-10 3-15 4-5 1-11 1-17 1-14 0-27-2-38-8-11-7-21-14-30-25-9-12-15-24-19-39-5-15-7-31-7-50 0-10 1-23 5-34z" horiz-adv-x="1000" />
<glyph glyph-name="git" unicode="&#xe805;" d="m934 851h-868c-37 0-66-30-66-67v-869c0-36 29-65 66-65h869c36 0 66 30 66 66v868c0 37-30 67-67 67z m-738-557c4-11 9-20 15-29 7-7 14-14 23-17 9-4 19-7 29-7 8 0 16 2 23 3 8 1 14 4 20 6l7 53h-28c-4 0-7 1-10 3-2 3-4 5-2 9l5 40h106l-16-134c-9-6-17-11-25-15-9-3-18-7-28-10-10-2-20-5-30-6-11-2-22-2-35-2-20 0-37 3-54 11-16 7-30 17-41 30-11 12-20 27-27 45-7 17-10 36-10 56 0 18 2 35 6 50 4 16 10 31 17 44 8 14 17 26 27 36 10 11 22 20 35 28 12 7 26 13 41 17 15 4 30 6 46 6 14 0 26-1 38-3 11-3 21-7 30-10 8-4 16-9 23-15 8-5 13-12 19-18l-25-26c-4-5-9-9-14-9-5-1-11 0-16 4-5 4-10 6-15 9-5 2-9 5-14 6-5 1-10 2-15 4-5 1-11 1-17 1-14 0-26-3-38-9-11-6-21-14-30-25-8-11-15-24-18-39-5-15-8-31-8-50 1-13 3-26 6-37z m340-104h-71l39 319h71l-39-319z m348 263h-81l-33-263h-70l33 263h-83l8 56h233l-7-56z" horiz-adv-x="1000" />
<glyph glyph-name="plus" unicode="&#xe806;" d="m958 408v-120c0-17-12-34-33-34h-304c-17 0-33-12-33-33v-304c0-17-13-34-34-34h-121c-16 0-33 13-33 34v308c0 17-12 33-33 33h-296c-17 0-33 13-33 34v121c0 16 12 33 33 33h304c17 0 33 12 33 33v296c0 17 13 33 34 33h121c16 0 33-12 33-33v-304c0-17 12-33 33-33h304c13 4 25-13 25-30z" horiz-adv-x="1000" />
<glyph glyph-name="minus" unicode="&#xe807;" d="m942 258h-884c-8 0-16 9-16 17v154c0 4 8 13 16 13h888c8 0 17-9 17-17v-154c-5-4-13-13-21-13z" horiz-adv-x="1000" />
<glyph glyph-name="remove" unicode="&#xe808;" d="m942 688l-109 108c-12 12-33 12-45 0l-267-267c-13-12-33-12-46 0l-267 267c-12 12-33 12-45 0l-113-108c-12-13-12-34 0-46l267-267c12-12 12-33 0-46l-267-266c-12-13-12-34 0-46l108-109c17-16 38-16 50-4l267 267c13 12 33 12 46 0l267-267c12-12 33-12 45 0l109 109c12 12 12 33 0 45l-267 267c-12 13-12 33 0 46l267 267c12 12 12 33 0 50z" horiz-adv-x="1000" />
<glyph glyph-name="bookmark" unicode="&#xe809;" d="m767-96l-234 267c-8 12-25 12-33 0l-233-267c-17-17-42-4-42 25v842c0 17 13 33 25 33h533c13 0 25-16 25-33v-838c0-29-25-46-41-29z" horiz-adv-x="1000" />
<glyph glyph-name="branch" unicode="&#xe80a;" d="m829 579c0 67-54 121-121 121s-125-54-125-121c0-41 21-79 59-104-17-129-125-167-192-179v287c38 21 63 59 63 105 0 66-55 120-125 120s-121-54-121-120c0-46 25-84 62-105v-458c-37-25-62-62-62-108 0-67 54-121 121-121s120 54 120 121c0 46-25 83-62 104v50c58 8 154 29 225 100 50 50 79 117 87 196 46 25 71 66 71 112z m-441 150c20 0 41-16 41-41s-16-42-41-42c-21 0-42 17-42 42s21 41 42 41z m0-750c-21 0-42 17-42 42 0 21 17 42 42 42 20 0 41-17 41-42 0-25-16-42-41-42z m320 642c21 0 42-17 42-42s-17-41-42-41c-20 0-41 16-41 41s16 42 41 42z" horiz-adv-x="1000" />
<glyph glyph-name="tag" unicode="&#xe80b;" d="m433 800l-316 8c-38 0-71-33-71-70l8-317c0-17 9-33 21-46l442-442c25-25 71-25 96 0l308 309c25 25 25 71 0 96l-442 441c-8 13-25 17-46 21z m-83-225c0-37-29-67-67-67-37 0-66 30-66 67-4 38 25 67 62 67s71-29 71-67z" horiz-adv-x="1000" />
<glyph glyph-name="lock" unicode="&#xe80c;" d="m817 429h-50v109c0 8 0 12 0 20 0 5 0 9 0 13 0 4 0 4 0 8 0 9-4 17-4 25 0 4 0 9-5 9-4 8-4 16-8 25 0 0 0 0 0 4-4 8-8 21-12 29 0 4-5 4-5 4-4 8-8 13-12 21 0 4-4 4-4 8-4 4-9 13-13 17 0 4-4 4-4 8-8 9-12 13-21 21 0 0-4 0-4 4-8 4-12 13-21 17-4 0-4 4-8 4-8 4-13 8-21 13-4 0-4 4-8 4-9 4-17 8-29 12 0 0 0 0 0 0-9 4-21 4-30 9-4 0-4 0-8 0-4 0-8 0-8 0 0 0-4 0-4 0 0 0-5 0-5 0 0 0 0 0 0 0 0 0 0 0 0 0-4 0-8 0-8 0-4 0-4 0-8 0-4 0-4 0-9 0 0 0 0 0 0 0-4 0-8 0-8 0 0 0 0 0 0 0 0 0 0 0 0 0 0 0-4 0-4 0 0 0-4 0-4 0-4 0-9 0-9 0-4 0-8 0-8 0-8 0-21-5-29-9 0 0 0 0 0 0-38-12-50-16-58-21-5 0-5-4-9-4-4 0-12-4-16-8-5-4-9-4-9-4-8-4-16-13-25-17 0 0-4 0-4-4-4-4-12-13-21-21 0 0-4-4-4-8-4 0-12-9-17-13 0-4-4-4-4-8-4-8-8-13-12-21 0 0-4-4-4-4-5-13-9-21-13-29 0-4 0-4-4-9-4-8-4-12-8-20 0-5 0-9-5-9 0-8-4-16-4-25 0-4 0-4 0-8 0-4 0-8 0-13 0-8 0-12 0-20v-109h-46c-16 0-29-12-29-29v-475c0-17 13-29 29-29h638c17 0 29 12 29 29v475c-4 17-17 29-33 29z m-459 109c0 66 50 125 113 137 0 0 4 0 4 0 8 0 17 0 21 4 0 0 4 0 4 0 0 0 0 0 0 0 8 0 17 0 21-4 0 0 4 0 4 0 63-12 113-71 113-137v-109h-280v109z" horiz-adv-x="1000" />
<glyph glyph-name="unlock" unicode="&#xe80d;" d="m817 429h-459v109c0 66 50 125 113 137 0 0 4 0 4 0 8 0 17 0 21 4 0 0 4 0 4 0 0 0 0 0 4 0 9 0 17 0 25-4 0 0 0 0 0 0 9 0 17-4 25-8 0 0 4 0 4-4 9-5 13-9 21-13 0 0 0 0 0 0 9-4 13-8 17-17 0 0 4-4 4-4 4-4 8-8 13-16 0 0 0-5 4-5 4-8 8-12 12-20 0 0 0-5 4-5 5-8 5-12 5-20 0 0 0-5 0-5 0 0 0 0 0-4 4-12 16-25 29-25h66c17 0 30 17 30 34 0 0 0 0 0 0 0 4 0 4 0 4 0 8-5 16-5 25 0 4 0 8-4 8-4 8-4 17-8 21 4 17 4 17 4 21-4 8-8 16-12 29 0 4-5 4-5 4-4 8-8 13-12 21 0 4-4 4-4 8-4 4-9 13-13 17 0 4-4 4-4 8-8 9-12 13-21 21 0 0-4 0-4 4-8 4-12 13-21 17-12-4-16-4-16-4-9 4-13 8-21 12-4 0-4 4-9 4-8 5-16 9-29 13 0 0 0 0 0 0-8 4-21 4-29 8-4 0-4 0-8 0-9 0-17 0-25 4-4 0-9 0-9 0-8 0-16 0-29 0 0 0-4 0-4 0-8 0-21-4-29-4-8 0-13-4-21-4 0 0-4 0-4 0-113-42-188-142-188-262v-109h-50c-16 0-29-12-29-29v-475c0-17 13-29 29-29h634c16 0 29 12 29 29v475c0 17-13 29-29 29z" horiz-adv-x="1000" />
<glyph glyph-name="delete" unicode="&#xe80e;" d="m500 804c-254 0-454-204-454-454 0-250 204-454 454-454s454 204 454 454c0 250-204 454-454 454z m267-491c0-17-17-34-34-34h-466c-21 0-34 13-34 34v75c0 16 17 33 34 33h466c21 0 34-13 34-33v-75z" horiz-adv-x="1000" />
<glyph glyph-name="ok" unicode="&#xe80f;" d="m500 804c-250 0-454-204-454-454 0-250 204-454 454-454s454 204 454 454c0 250-204 454-454 454z m283-346l-358-358c-12-12-33-12-46 0l-162 163c-13 12-13 33 0 45l50 50c12 13 33 13 46 0l66-66c13-13 34-13 46 0l263 262c12 13 33 13 45 0l50-50c13-16 13-37 0-46z" horiz-adv-x="1000" />
<glyph glyph-name="comment" unicode="&#xe810;" d="m42-13v601c0 87 71 154 154 154h600c87 0 154-71 154-154v-342c0-88-71-154-154-154h-583c-9 0-13-4-17-9l-113-112c-12-17-41-4-41 16z m158 684c-46 0-87-38-87-88v-487l54 54c4 4 12 8 16 8h617c46 0 88 38 88 88v342c0 45-38 87-88 87h-600z" horiz-adv-x="1000" />
<glyph glyph-name="feed" unicode="&#xe811;" d="m888 804h-780c-37 0-66-29-66-66v-780c0-37 29-66 66-66h780c37 0 66 29 66 66v780c0 37-29 66-66 66z m-638-787c-46 0-83 37-83 83 0 46 37 88 87 88 46 0 88-38 88-88-4-46-46-83-92-83z m292-13c-38 0-71 34-71 71 0 133-108 238-238 238-37 0-75 29-75 66 0 38 25 71 63 71l12 0c209 0 380-171 380-379 0-33-30-67-71-67z m237 0c-37 0-71 34-71 71 0 263-212 475-475 475-37 0-75 29-75 67 0 37 25 71 63 71l12 0c338 0 613-275 613-613 4-37-29-71-67-71z" horiz-adv-x="1000" />
<glyph glyph-name="right" unicode="&#xe812;" d="m308-96l-75 75c-12 13-12 29 0 42l309 308c12 13 12 29 0 42l-317 312c-12 13-12 30 0 42l75 75c13 13 29 13 42 0l433-433c13-13 13-29 0-42l-425-421c-8-12-29-12-42 0z" horiz-adv-x="1000" />
<glyph glyph-name="left" unicode="&#xe813;" d="m683 800l75-75c13-12 13-29 0-42l-308-308c-12-12-12-29 0-42l317-316c12-13 12-30 0-42l-75-75c-13-13-29-13-42 0l-433 433c-13 13-13 30 0 42l425 425c12 13 29 13 41 0z" horiz-adv-x="1000" />
<glyph glyph-name="arrow_down" unicode="&#xe814;" d="m950 542l-412-521c-17-21-50-21-67 0l-417 521c-21 25-4 71 34 71h829c37 0 58-46 33-71z" horiz-adv-x="1000" />
<glyph glyph-name="group" unicode="&#xe815;" d="m958 221v-17c0-4-4-8-8-8h-167-4c-16 21-41 37-79 46-37 4-58 16-71 25 9 8 17 12 34 16 45 9 62 21 66 38s9 25 0 37c-8 13-33 46-33 84 0 41 0 104 75 108h8 13c75-4 79-71 75-108 0-42-25-71-34-84-8-16-8-25 0-37s21-29 67-38c54-12 58-58 58-62 0 0 0 0 0 0z m-725-17c17 17 38 34 71 38 42 8 63 16 75 25-8 8-21 16-37 21-46 8-63 20-67 37-8 13-8 25 0 38 8 12 33 45 33 83 0 42 0 104-75 108h-12-8c-75-4-80-71-80-108 0-42 25-71 34-83 8-17 8-25 0-38-9-12-21-29-67-37-50-9-54-50-54-59 0 0 0 0 0 0v-16c0-5 4-9 8-9h167 12z m463 13c-75 12-96 37-108 58-13 21-13 42 0 63 12 25 50 70 54 133 4 62 0 167-121 175h-21-17c-116-4-120-113-120-175 4-63 41-113 54-133 12-25 12-42 0-63-13-21-38-46-109-58-75-13-87-84-87-92 0 0 0 0 0 0v-25c0-8 8-17 17-17h262 267c8 0 16 9 16 17v25c0 0 0 0 0 0 0 8-8 79-87 92z" horiz-adv-x="1000" />
<glyph glyph-name="folder" unicode="&#xe816;" d="m742 17h-659c-12 0-25 8-33 16-8 13-8 25 0 38l179 342c4 12 17 20 34 20h658c12 0 25-8 33-16 9-13 9-25 0-38l-179-341c-8-13-21-21-33-21z m-596 75h575l142 266h-580l-137-266z m-29-38h-75v550c0 21 16 38 37 38h246c8 0 21-4 25-13l54-54h325c21 0 38-17 38-37v-105h-75v67h-300c-9 0-17 4-25 8l-59 59h-191v-513z" horiz-adv-x="1000" />
<glyph glyph-name="fork" unicode="&#xe817;" d="m838 688c0 66-55 120-121 120-67 0-121-54-121-120 0-42 21-80 54-100-12-100-83-146-150-167-71 21-137 67-150 167 33 20 54 58 54 100 0 66-54 120-121 120s-120-54-120-120c0-46 29-88 66-109 13-129 88-225 213-271v-191c-38-21-63-59-63-100 0-67 54-121 121-121s121 54 121 121c0 46-25 83-58 104v192c120 45 200 137 212 270 33 17 63 59 63 105z m-555 37c21 0 42-17 42-42s-17-41-42-41-41 16-41 41 21 42 41 42z m217-750c-21 0-42 17-42 42 0 21 17 41 42 41s42-16 42-41c0-25-21-42-42-42z m217 750c21 0 41-17 41-42s-16-41-41-41-42 16-42 41 21 42 42 42z" horiz-adv-x="1000" />
<glyph glyph-name="more" unicode="&#xe818;" d="m592 408v-120c0-17-13-34-34-34h-120c-17 0-34 13-34 34v120c0 17 13 34 34 34h120c21 0 34-17 34-34z m-34 400h-120c-17 0-34-12-34-33v-121c0-16 13-33 34-33h120c17 0 34 12 34 33v121c0 21-13 33-34 33z m0-733h-120c-17 0-34-12-34-33v-121c0-17 13-34 34-34h120c17 0 34 13 34 34v121c0 16-13 33-34 33z" horiz-adv-x="1000" />
<glyph glyph-name="comment-add" unicode="&#xe819;" d="m48-12v593c0 86 69 155 154 155h596c85 0 154-69 154-155v-338c0-86-69-155-154-155h-584c-7 0-12-2-16-7l-110-110c-14-14-40-4-40 17z m154 679c-47 0-85-38-85-86v-486l52 53c5 4 10 7 17 7h612c47 0 85 38 85 86v340c0 48-38 86-85 86h-596z m479-284l0 48c0 5-5 10-10 10l-114 0c-5 0-9 4-9 9v114c0 5-5 10-10 10h-47c-5 0-10-5-10-10v-114c0-5-5-9-10-9h-114c-5 0-9-5-9-10v-48c0-4 4-9 9-9h114c5 0 10-5 10-10l0-114c0-5 5-9 10-9l47 0c5 0 10 4 10 9v114c0 5 4 10 9 10h114c5-3 10 2 10 9z" horiz-adv-x="1000" />
</font>
</defs>
</svg>
